<?xml version="1.0" standalone="no"?>
<!DOCTYPE svg PUBLIC "-//W3C//DTD SVG 1.1//EN" "http://www.w3.org/Graphics/SVG/1.1/DTD/svg11.dtd" >
<svg xmlns="http://www.w3.org/2000/svg">
<metadata>
Created by FontForge 20120731 at Tue Sep  6 12:16:07 2016
 By admin
</metadata>
<defs>
<font id="el-icon" horiz-adv-x="1024" >
  <font-face 
    font-family="el-icon"
    font-weight="500"
    font-stretch="normal"
    units-per-em="1024"
    panose-1="2 0 6 3 0 0 0 0 0 0"
    ascent="896"
    descent="-128"
    x-height="792"
    bbox="-0.0862045 -128.321 1326 896.053"
    underline-thickness="50"
    underline-position="-100"
    unicode-range="U+0078-E627"
  />
<missing-glyph horiz-adv-x="374" 
d="M34 0v682h272v-682h-272zM68 34h204v614h-204v-614z" />
    <glyph glyph-name=".notdef" horiz-adv-x="374" 
d="M34 0v682h272v-682h-272zM68 34h204v614h-204v-614z" />
    <glyph glyph-name=".null" horiz-adv-x="0" 
 />
    <glyph glyph-name="nonmarkingreturn" horiz-adv-x="341" 
 />
    <glyph glyph-name="x" unicode="x" horiz-adv-x="1001" 
d="M281 543q-27 -1 -53 -1h-83q-18 0 -36.5 -6t-32.5 -18.5t-23 -32t-9 -45.5v-76h912v41q0 16 -0.5 30t-0.5 18q0 13 -5 29t-17 29.5t-31.5 22.5t-49.5 9h-133v-97h-438v97zM955 310v-52q0 -23 0.5 -52t0.5 -58t-10.5 -47.5t-26 -30t-33 -16t-31.5 -4.5q-14 -1 -29.5 -0.5
t-29.5 0.5h-32l-45 128h-439l-44 -128h-29h-34q-20 0 -45 1q-25 0 -41 9.5t-25.5 23t-13.5 29.5t-4 30v167h911zM163 247q-12 0 -21 -8.5t-9 -21.5t9 -21.5t21 -8.5q13 0 22 8.5t9 21.5t-9 21.5t-22 8.5zM316 123q-8 -26 -14 -48q-5 -19 -10.5 -37t-7.5 -25t-3 -15t1 -14.5
t9.5 -10.5t21.5 -4h37h67h81h80h64h36q23 0 34 12t2 38q-5 13 -9.5 30.5t-9.5 34.5q-5 19 -11 39h-368zM336 498v228q0 11 2.5 23t10 21.5t20.5 15.5t34 6h188q31 0 51.5 -14.5t20.5 -52.5v-227h-327z" />
    <glyph glyph-name="uniE600" unicode="&#xe600;" 
d="M488 134q18 -8 39 -5t35 16l445 403q18 16 17 38.5t-20 38.5t-45.5 15t-44.5 -17l-399 -362l-405 360q-19 17 -45 17.5t-45 -15.5q-20 -16 -20 -40q0 -22 18 -38l449 -399h1l2 -2t2 -1q2 -2 12 -7l2 -2h2z" />
    <glyph glyph-name="uniE601" unicode="&#xe601;" 
d="M262 360q-8 18 -5 39t16 35l403 445q16 18 38.5 17t38.5 -20t15 -45.5t-17 -44.5l-362 -399l360 -405q17 -19 17.5 -45t-15.5 -45q-16 -20 -40 -20q-22 0 -38 18l-399 449v1l-2 2t-1 2q-2 2 -7 12l-2 2v2z" />
    <glyph glyph-name="uniE602" unicode="&#xe602;" 
d="M762 360q8 18 5 39t-16 35l-403 445q-16 18 -38.5 17t-38.5 -20t-15 -45.5t17 -44.5l362 -399l-360 -405q-17 -19 -17.5 -45t15.5 -45q16 -20 40 -20q22 0 38 18l399 449v1l2 2t1 2q2 2 7 12l2 2v2z" />
    <glyph glyph-name="uniE603" unicode="&#xe603;" 
d="M536 634q-18 8 -39 5t-35 -16l-445 -403q-18 -16 -17 -38.5t20 -38.5t45.5 -15t44.5 17l399 362l405 -360q19 -17 45 -17.5t45 15.5q20 16 20 40q0 22 -18 38l-449 399h-1l-2 2t-2 1q-2 2 -12 7l-2 2h-2z" />
    <glyph glyph-name="uniE604" unicode="&#xe604;" horiz-adv-x="1025" 
d="M410 177q28 -28 67.5 -27.5t67.5 27.5l367 357q55 53 39.5 91t-92.5 38h-763q-77 0 -92.5 -38t39.5 -91z" />
    <glyph glyph-name="uniE605" unicode="&#xe605;" 
d="M294 293q-27 27 -27 67t27 67l357 367q54 55 92 39.5t38 -92.5v-763q0 -77 -38 -92.5t-92 39.5l-357 367v1z" />
    <glyph glyph-name="uniE606" unicode="&#xe606;" 
d="M754 293q27 27 27 67t-27 67l-358 367q-53 55 -91 39.5t-38 -92.5v-763q0 -77 38 -92.5t91 39.5l358 367v1z" />
    <glyph glyph-name="uniE607" unicode="&#xe607;" horiz-adv-x="1025" 
d="M410 636q28 27 67.5 27t67.5 -27l367 -357q55 -54 39.5 -91.5t-92.5 -37.5h-763q-77 0 -92.5 37.5t39.5 91.5z" />
    <glyph glyph-name="uniE608" unicode="&#xe608;" horiz-adv-x="1376" 
d="M548 -17q-40 0 -68 28l-389 389q-29 29 -29 69t28.5 68.5t69 28.5t68.5 -28l320 -320l612 612q29 28 69 28t68.5 -28.5t28.5 -68.5t-28 -69l-681 -681q-28 -28 -69 -28v0z" />
    <glyph glyph-name="uniE609" unicode="&#xe609;" 
d="M512 896q-106 0 -199.5 -40t-163 -109.5t-109.5 -163t-40 -199.5t40 -199.5t109.5 -163t163 -109.5t199.5 -40t199.5 40t163 109.5t109.5 163t40 199.5t-40 199.5t-109.5 163t-163 109.5t-199.5 40zM798 497l-373 -373q-8 -7 -17.5 -7t-17.5 7l-7 8l-206 206q-7 8 -7 18
t7 17l51 50q7 8 17 8t17 -8l145 -146l306 305q7 8 17 8t17 -8l50 -50q8 -8 8 -17.5t-8 -17.5h1z" />
    <glyph glyph-name="uniE60A" unicode="&#xe60a;" 
d="M522 429l202 202q11 11 26 11t26 -11q11 -10 11 -25.5t-11 -26.5l-202 -202l202 -202q11 -11 10.5 -26t-10.5 -26q-11 -10 -26 -10t-26 10l-202 203l-202 -203q-11 -10 -26.5 -10t-25.5 10q-11 11 -11 26t11 26l202 202l-202 202q-11 11 -10.5 26.5t10.5 25.5
q11 11 26 11t26 -11zM512 -128q139 0 257 68.5t186.5 186.5t68.5 257t-68.5 257t-186.5 186.5t-257 68.5t-257 -68.5t-186.5 -186.5t-68.5 -257t68.5 -257t186.5 -186.5t257 -68.5z" />
    <glyph glyph-name="uniE60B" unicode="&#xe60b;" 
d="M512 -128q-106 0 -199.5 40t-163 109.5t-109.5 163t-40 199.5t40 199.5t109.5 163t163 109.5t199.5 40t199.5 -40t163 -109.5t109.5 -163t40 -199.5t-40 -199.5t-109.5 -163t-163 -109.5t-199.5 -40zM747 533q7 7 7 17.5t-7 18.5l-53 51q-7 8 -17 8t-17 -8l-148 -147
l-149 147q-7 8 -17 8t-17 -8l-53 -51q-6 -8 -6 -18.5t6 -17.5l149 -148l-149 -147q-6 -8 -6 -18.5t6 -17.5l53 -52q7 -7 17 -7t17 7l149 148l148 -148q7 -7 17 -7t17 7l53 52q7 7 7 17.5t-7 18.5l-149 147z" />
    <glyph glyph-name="uniE60C" unicode="&#xe60c;" 
d="M512 484l-391 391q-21 21 -50.5 21t-49.5 -21q-20 -20 -20.5 -49.5t20.5 -50.5l391 -391l-391 -391q-21 -21 -21 -50.5t21 -49.5q20 -21 49.5 -21t50.5 21l391 391l391 -391q21 -21 50.5 -21t49.5 21q21 20 21 49.5t-21 50.5l-391 391l391 391q21 21 21 50.5t-21 49.5
q-20 20 -49.5 20.5t-50.5 -20.5z" />
    <glyph glyph-name="uniE60D" unicode="&#xe60d;" 
d="M566 0h213q102 3 173.5 77t71.5 176q0 105 -74 179.5t-178 74.5h-8v8q0 105 -73.5 179t-178 74t-178.5 -74t-74 -179v-8h-8q-104 0 -178 -74.5t-74 -179.5q0 -102 71.5 -176t173.5 -77h229v172h-90q-20 0 -26 11t5 27l140 214q7 10 16.5 10t16.5 -10l141 -214
q10 -16 4 -27t-25 -11h-90v-172z" />
    <glyph glyph-name="uniE60E" unicode="&#xe60e;" horiz-adv-x="1025" 
d="M6 360q-8 18 -5 39t16 35l403 445q16 18 38.5 17t38.5 -20t15 -45.5t-17 -44.5l-362 -399l360 -405q17 -19 17.5 -45t-15.5 -45q-16 -20 -40 -20q-22 0 -38 18l-399 449v1l-2 2t-1 2q-2 2 -7 12l-2 2v2zM518 360q-8 18 -5 39t16 35l403 445q16 18 38.5 17t38.5 -20
t15 -45.5t-17 -44.5l-362 -399l360 -405q17 -19 17.5 -45t-15.5 -45q-16 -20 -40 -20q-22 0 -38 18l-399 449v1l-2 2t-1 2q-2 2 -7 12l-2 2v2z" />
    <glyph glyph-name="uniE60F" unicode="&#xe60f;" horiz-adv-x="1025" 
d="M1018 360q8 18 5.5 39t-16.5 35l-403 445q-16 18 -38.5 17t-38.5 -20t-15 -45.5t17 -44.5l362 -399l-360 -405q-17 -19 -17.5 -45t15.5 -45q16 -20 40 -20q22 0 38 18l399 449v1l2 2l2 2l6 12l2 2v2zM506 360q8 18 5.5 39t-16.5 35l-403 445q-16 18 -38.5 17t-38.5 -20
t-15 -45.5t17 -44.5l362 -399l-360 -405q-17 -19 -17.5 -45t15.5 -45q16 -20 40 -20q22 0 38 18l399 449v1l2 2t1 2q2 2 7 12l2 2v2z" />
    <glyph glyph-name="uniE610" unicode="&#xe610;" 
d="M440 -99q26 -24 62 -24t62 24l300 284q52 48 38.5 82t-83.5 34h-634q-70 0 -83.5 -34t37.5 -82zM440 872q26 24 62 24t62 -24l300 -283q52 -49 38.5 -83t-83.5 -34h-634q-70 0 -83.5 34t37.5 83z" />
    <glyph glyph-name="uniE611" unicode="&#xe611;" 
d="M713 782h-402v114h-151v-114h-50q-28 0 -47.5 -19.5t-19.5 -47.5v-776q0 -28 19 -47.5t47 -19.5h806q28 0 47 19.5t19 47.5v776q0 28 -19.5 47.5t-46.5 19.5h-51v114h-151v-114zM160 -18v573h704v-573h-704zM555 299v-256h256v256h-256z" />
    <glyph glyph-name="uniE612" unicode="&#xe612;" 
d="M642 706v126q0 27 -16.5 45.5t-40.5 18.5h-136q-25 0 -45.5 -19t-20.5 -45v-126h-204q0 -1 -2 -2q-49 -22 -49 -64q0 -26 17.5 -45t41.5 -19h650q24 0 41.5 19t17.5 45q0 24 -15 40.5t-29 21.5l-15 4h-195zM448 704v64q0 32 18 48t46 16q29 0 46.5 -16t17.5 -48v-64h-128
zM320 -128h384q53 0 90.5 37.5t37.5 90.5v512h-640v-512q0 -53 37.5 -90.5t90.5 -37.5zM644 356q0 11 7.5 19.5t18.5 8.5t19 -8.5t8 -19.5v-342q0 -12 -8 -20t-19 -8t-18.5 8t-7.5 20v342zM486 356q0 11 7.5 19.5t18.5 8.5t18.5 -8.5t7.5 -19.5v-342q0 -12 -7.5 -20
t-18.5 -8t-18.5 8t-7.5 20v342zM328 356q0 11 7.5 19.5t18.5 8.5t18.5 -8.5t7.5 -19.5v-342q0 -12 -7.5 -20t-18.5 -8t-18.5 8t-7.5 20v342z" />
    <glyph glyph-name="uniE613" unicode="&#xe613;" 
d="M441 896l-356 -366v-519q0 -57 41 -98t99 -41h574q58 0 99 41t41 98v746q0 57 -41 98t-99 41h-358zM832 53q0 -29 -21 -50t-50 -21h-498q-30 0 -50.5 20.5t-20.5 50.5v404h249q29 0 50 21t21 51v257h249q29 0 50 -21t21 -50v-662z" />
    <glyph glyph-name="uniE614" unicode="&#xe614;" 
d="M84 180l-84 -308l307 85l485 485l-226 219zM755 850l-121 -121l227 -219l117 117q46 46 46 111.5t-46 111.5t-111.5 46t-111.5 -46z" />
    <glyph glyph-name="uniE615" unicode="&#xe615;" 
d="M512 -128q-106 0 -199.5 40t-163 109.5t-109.5 163t-40 199.5t40 199.5t109.5 163t163 109.5t199.5 40t199.5 -40t163 -109.5t109.5 -163t40 -199.5t-40 -199.5t-109.5 -163t-163 -109.5t-199.5 -40zM512 677q-31 0 -52 -21.5t-21 -52t21.5 -52t52 -21.5t51.5 21.5t21 52
t-21.5 52t-51.5 21.5zM571 401q0 23 -17 39.5t-42 16.5t-42 -16.5t-17 -39.5v-261q0 -24 17 -40t42 -16t42 16t17 40v261z" />
    <glyph glyph-name="uniE616" unicode="&#xe616;" 
d="M0 384q0 -139 68.5 -257t186.5 -186.5t257 -68.5t257 68.5t186.5 186.5t68.5 257t-68.5 257t-186.5 186.5t-257 68.5q-16 0 -27.5 -11.5t-11.5 -28t11.5 -28t27.5 -11.5q118 0 217.5 -58t157.5 -157.5t58 -217.5t-58 -217.5t-157.5 -157.5t-217.5 -58t-217.5 58
t-157.5 157.5t-58 217.5q0 16 -11.5 27.5t-28 11.5t-28 -11.5t-11.5 -27.5z" />
    <glyph glyph-name="uniE617" unicode="&#xe617;" 
d="M358 347h-244q-47 0 -80.5 -33.5t-33.5 -80.5v-245q0 -48 33.5 -82t80.5 -34h244q48 0 81 33.5t33 80.5v244q2 49 -31.5 83t-82.5 34zM358 896h-244q-47 0 -80.5 -33.5t-33.5 -80.5v-244q0 -48 33.5 -81t80.5 -33h244q48 0 81 33t33 81v244q2 47 -31.5 80.5t-82.5 33.5z
M910 347h-244q-48 0 -81 -33.5t-33 -80.5v-245q0 -47 33 -80.5t81 -33.5h244q47 0 80.5 33.5t33.5 80.5v242q0 49 -33.5 83t-80.5 34zM910 896h-244q-48 0 -81 -33.5t-33 -80.5v-244q0 -48 33 -81t81 -33h244q47 0 80.5 33t33.5 81v244q0 47 -33.5 80.5t-80.5 33.5z" />
    <glyph glyph-name="uniE618" unicode="&#xe618;" 
d="M896 811h-768q-41 0 -84.5 -29t-43.5 -65v-18q18 -15 47.5 -40t108.5 -89t143.5 -113t127.5 -89t85 -40t85 39.5t127.5 88.5t143.5 112.5t108.5 89t47.5 40.5v19q0 36 -43.5 65t-84.5 29v0zM0 549v-526q2 -3 5.5 -7.5t16 -15.5t26.5 -20t35.5 -16t44.5 -7h768
q21 0 42.5 7t36 16.5t26 19t17.5 16.5l6 7v528q-15 -14 -40.5 -36.5t-96 -80t-132.5 -101.5t-132 -80t-111 -36t-109 34.5t-135.5 83t-129 97.5t-100.5 83l-38 34v0z" />
    <glyph glyph-name="uniE619" unicode="&#xe619;" 
d="M79 463h866q33 0 56 -23t23 -56t-23 -56t-56 -23h-866q-33 0 -56 23t-23 56t23 56t56 23z" />
    <glyph glyph-name="uniE61A" unicode="&#xe61a;" 
d="M118 266q49 0 83.5 34.5t34.5 83.5t-34.5 83.5t-83.5 34.5t-83.5 -34.5t-34.5 -83.5t34.5 -83.5t83.5 -34.5zM512 266q49 0 83.5 34.5t34.5 83.5t-34.5 83.5t-83.5 34.5t-83.5 -34.5t-34.5 -83.5t34.5 -83.5t83.5 -34.5zM906 266q49 0 83.5 34.5t34.5 83.5t-34.5 83.5
t-83.5 34.5t-83.5 -34.5t-34.5 -83.5t34.5 -83.5t83.5 -34.5z" />
    <glyph glyph-name="uniE61B" unicode="&#xe61b;" 
d="M147 811q-61 0 -104 -43t-43 -104v-560q0 -61 43 -104t104 -43h730q61 0 104 43t43 104v560q0 61 -43 104t-104 43h-730zM743 431q-1 2 -4 6t-16.5 10t-32.5 6q-20 0 -35 -5.5t-20 -10.5l-5 -5l-176 -279q-10 -19 -33 -19q-11 0 -20 5t-13 9l-3 5l-93 109q-2 3 -7 8.5
t-19.5 14.5t-28 9t-27.5 -9t-21 -18l-7 -9l-72 -87v460q0 30 21 51.5t52 21.5h659q30 0 51 -21.5t21 -51.5v-425zM475 491q0 -45 -32 -76t-77.5 -31t-77.5 31.5t-32 75.5t32 75t77.5 31t77.5 -31t32 -75v0z" />
    <glyph glyph-name="uniE61C" unicode="&#xe61c;" 
d="M439 457h-365q-31 0 -52.5 -21.5t-21.5 -51.5t21.5 -51.5t52.5 -21.5h365v-365q0 -31 21.5 -52.5t51.5 -21.5t51.5 21.5t21.5 52.5v365h365q31 0 52.5 21.5t21.5 51.5t-21.5 51.5t-52.5 21.5h-365v365q0 31 -21.5 52.5t-51.5 21.5t-51.5 -21.5t-21.5 -52.5v-365z" />
    <glyph glyph-name="uniE61D" unicode="&#xe61d;" 
d="M591 274q75 75 75 181t-75 181t-181 75t-181 -75t-75 -181t75 -181t181 -75t181 75zM650 155q-75 -60 -167.5 -78t-184 9.5t-159.5 96.5q-74 74 -100 173t0 197.5t99.5 172.5t172.5 100t198 0t173 -100q96 -96 110 -230.5t-57 -245.5l203 -202q19 -19 19 -45.5t-19 -45.5
q-18 -19 -44.5 -19t-46.5 19z" />
    <glyph glyph-name="uniE61E" unicode="&#xe61e;" horiz-adv-x="1025" 
d="M1020 454q-3 16 -17 30.5t-31 18.5l-16 3q-63 19 -96 75t-18 119l5 15q5 16 -0.5 35.5t-18.5 30.5q-16 13 -60 38q-19 11 -35 18.5t-22 10.5l-6 2q-16 6 -35.5 1.5t-31.5 -17.5l-12 -12q-47 -44 -113.5 -44t-114.5 44l-11 12q-12 13 -31.5 17.5t-35.5 -1.5
q-20 -7 -64 -31q-19 -12 -34 -21.5t-20 -13.5l-5 -4q-13 -10 -19 -29t-1 -36l5 -15q15 -63 -18 -119q-33 -57 -96 -75l-16 -3q-17 -4 -31 -18.5t-17 -30.5q-4 -20 -4 -70q0 -22 1 -39.5t2 -23.5l1 -7q3 -16 17 -30.5t31 -18.5l15 -3q64 -19 97 -75t18 -119l-5 -15
q-5 -16 1 -35.5t19 -30.5q15 -13 59 -38q20 -11 36 -18.5t22 -10.5l6 -2q16 -6 35.5 -1.5t31.5 17.5l11 11q48 45 114 45q67 0 115 -45l11 -11q11 -13 31 -17.5t36 1.5q19 7 63 31q20 11 35 21t20 14l5 3q13 11 18.5 30t0.5 35l-4 16q-16 63 17 119t97 75l16 3q16 4 30 18.5
t18 30.5q3 20 3 70q0 22 -1 39.5t-2 23.5l-1 7v0v0zM512 184q-84 0 -144 58.5t-60 141.5t60 141.5t144.5 58.5t144 -58.5t59.5 -141.5t-59.5 -141.5t-144.5 -58.5v0z" />
    <glyph glyph-name="uniE61F" unicode="&#xe61f;" 
d="M877 159q27 -11 47.5 -31.5t32 -47.5t11.5 -58.5t-11.5 -58.5t-32 -47.5t-47.5 -32t-58 -11.5t-58 11.5t-47.5 32t-32 47.5t-11.5 58v9q0 5 2 8v9q1 5 2 8l-365 213q-11 -9 -22 -17t-25 -13q-13 -6 -27 -8q-14 -3 -30 -3q-31 0 -59.5 12.5t-48.5 32.5q-22 22 -34 49.5
t-12 60.5q0 31 12 59.5t34 48.5q20 22 48.5 34t59.5 12q15 0 30 -3q14 -3 27 -9q14 -5 25 -13t22 -17l361 212q-1 3 -1 8q-1 5 -2 9q0 5 -0.5 9.5t-0.5 9.5q0 31 12 59.5t33 48.5q21 21 49 33.5t59 12.5t59.5 -12.5t48.5 -33.5q22 -20 34 -48.5t12 -59.5q0 -33 -12 -61
t-34 -49q-20 -20 -48.5 -32t-59.5 -12q-15 0 -29.5 2t-27.5 9q-14 4 -25 12t-22 18l-361 -211q1 -5 1.5 -9.5t1.5 -8.5q0 -5 0.5 -9t0.5 -9t-0.5 -10t-0.5 -10q-1 -3 -2 -8q0 -4 -1 -8l364 -214q10 9 22 16t24 13q13 5 27 7q14 3 28 3q31 0 58 -12z" />
    <glyph glyph-name="uniE620" unicode="&#xe620;" horiz-adv-x="1086" 
d="M825 -58q15 -9 25 -10q-3 0 -8.5 -4t-6.5 -7q2 9 -2 27l-52 226q-9 40 5 82.5t45 68.5l176 154q14 12 18 20q-1 -3 1 -10t5 -8q-8 4 -27 6l-235 22q-40 3 -76 29.5t-52 62.5l-93 213q-7 17 -14 24q2 -2 9 -2t8 2q-7 -7 -14 -24l-93 -213q-16 -36 -52 -62.5t-76 -29.5
l-235 -22q-19 -2 -27 -6q3 1 5 8.5t1 9.5q4 -8 18 -20l177 -154q30 -26 44 -68.5t5 -82.5l-51 -226q-4 -18 -3 -27q0 3 -6 7t-8 4q9 1 25 10l202 119q35 21 80 21t79 -21zM493 10l-202 -119q-54 -32 -82.5 -11t-14.5 82l52 226q5 23 -4 50t-27 42l-177 154q-47 41 -36 74
t73 39l236 21q23 2 46 19t32 38l93 213q25 58 60.5 58t60.5 -58l93 -213q9 -21 32 -38t46 -19l236 -21q62 -6 73 -39t-36 -74l-177 -154q-18 -15 -27 -42t-4 -50l52 -226q14 -61 -14.5 -82t-82.5 11l-202 119q-21 12 -49.5 12t-49.5 -12z" />
    <glyph glyph-name="uniE621" unicode="&#xe621;" horiz-adv-x="1086" 
d="M592 10q-21 12 -49.5 12t-49.5 -12l-202 -119q-54 -32 -82.5 -11t-14.5 82l52 226q5 23 -4 50t-27 42l-177 154q-47 41 -36 74t73 39l236 21q23 2 46 19t32 38l93 213q25 58 60.5 58t60.5 -58l93 -213q9 -21 32 -38t46 -19l236 -21q62 -6 73 -39t-36 -74l-177 -154
q-18 -15 -27 -42t-4 -50l52 -226q14 -61 -14.5 -82t-82.5 11z" />
    <glyph glyph-name="uniE622" unicode="&#xe622;" 
d="M512 -128q-139 0 -257 68.5t-186.5 186.5t-68.5 257q0 104 40.5 199t109 163.5t163.5 109t199 40.5t199 -40.5t163.5 -109t109 -163.5t40.5 -199t-40.5 -199t-109 -163.5t-163.5 -109t-199 -40.5zM512 786q-109 0 -202 -53.5t-146.5 -146.5t-53.5 -202t53.5 -202
t146.5 -146.5t202 -53.5t202 53.5t146.5 146.5t53.5 202t-53.5 202t-146.5 146.5t-202 53.5zM513 316q-20 0 -34 14.5t-14 33.5v229q0 19 14 33.5t34 14.5t34 -14.5t14 -33.5v-181h160q20 0 34 -14t14 -33.5t-14 -34t-34 -14.5h-208z" />
    <glyph glyph-name="uniE623" unicode="&#xe623;" 
d="M512 896q-106 0 -199.5 -40t-163 -109.5t-109.5 -163t-40 -199.5t40 -199.5t109.5 -163t163 -109.5t199.5 -40t199.5 40t163 109.5t109.5 163t40 199.5t-40 199.5t-109.5 163t-163 109.5t-199.5 40zM512 94q-25 0 -42 17t-17 41.5t17 42t42 17.5t42 -17.5t17 -42
t-17 -41.5t-42 -17zM571 350q0 -25 -17 -42.5t-42 -17.5t-42 17.5t-17 42.5v275q0 25 17 42t42 17t42 -17t17 -42v-275z" />
    <glyph glyph-name="uniE624" unicode="&#xe624;" 
d="M382 491v-384q0 -10 -6 -16t-15 -6h-43q-10 0 -16 6t-6 16v384q0 9 6 15t16 6h43q9 0 15 -6t6 -15zM555 491v-384q0 -10 -6 -16t-15 -6h-44q-9 0 -15 6t-6 16v384q0 9 6 15t15 6h44q9 0 15 -6t6 -15zM728 491v-384q0 -10 -6 -16t-16 -6h-43q-9 0 -15 6t-6 16v384
q0 9 6 15t15 6h43q10 0 16 -6t6 -15zM815 8v632h-606v-632q0 -15 5 -27t10 -18t7 -6h562q2 0 7 6t10 18t5 27zM361 725h302l-32 78q-5 6 -12 8h-214q-6 -2 -11 -8zM987 704v-43q0 -9 -6 -15t-15 -6h-65v-632q0 -55 -31.5 -95.5t-76.5 -40.5h-562q-45 0 -76.5 39t-31.5 94
v635h-65q-9 0 -15 6t-6 15v43q0 9 6 15t15 6h209l47 112q10 24 36.5 41.5t53.5 17.5h216q27 0 53.5 -17.5t36.5 -41.5l47 -112h209q9 0 15 -6t6 -15z" />
    <glyph glyph-name="uniE626" unicode="&#xe626;" 
d="M634 506h-146v147q0 20 -14.5 34t-34.5 14t-34.5 -14t-14.5 -34v-147h-146q-20 0 -34 -14t-14 -34.5t14 -34.5t34 -14h146v-147q0 -20 14.5 -34t34.5 -14t34.5 14t14.5 34v147h146q20 0 34.5 14t14.5 34.5t-14.5 34.5t-34.5 14zM1009 -41l-226 227q67 85 86.5 190.5
t-12 209t-109.5 181.5q-63 64 -145 96.5t-165 32.5t-165 -32.5t-145 -96t-95.5 -145.5t-32.5 -165t32.5 -165t95.5 -145q79 -78 182.5 -109.5t209.5 -11.5t191 87l226 -226q15 -15 36 -15t36 15t15 36t-15 36zM679 217q-65 -66 -153 -89t-176 0t-153.5 89t-88.5 153.5
t0 175.5t88.5 153.5t153.5 89t176 0t153.5 -89t88.5 -153.5t0 -175.5t-89 -153.5z" />
    <glyph glyph-name="uniE627" unicode="&#xe627;" horiz-adv-x="1103" 
d="M1039 -128h-975q-27 0 -45.5 19t-18.5 45v320q0 27 18.5 45.5t45 18.5t45 -18.5t18.5 -45.5v-256h849v256q0 27 18.5 45.5t44.5 18.5t45 -18.5t19 -45.5v-320q0 -26 -18.5 -45t-45.5 -19zM742 555q-28 0 -47 21l-80 89v-388q0 -26 -18.5 -45t-45 -19t-45 19t-18.5 45v388
l-80 -89q-19 -21 -47 -21q-27 0 -45.5 18.5t-18.5 45.5q0 24 16 42l191 214q19 21 47.5 21t47.5 -21l191 -214q16 -18 16 -42q0 -27 -18.5 -45.5t-45.5 -18.5z" />
  </font>
</defs>
</svg>
